Имя пользователя:
Пароль:  
Помощь | Регистрация | Забыли пароль?  | Правила  

Компьютерный форум OSzone.net » Цифровые технологии » Видео и аудио: обработка и кодирование » Кодирование в 3gp

Ответить
Настройки темы
Кодирование в 3gp

Аватара для Dark_Elf

Пользователь


Сообщения: 77
Благодарности: 4


Конфигурация

Профиль | Отправить PM | Цитировать


Доброго всем времени суток! Можно ли отдельно зажатое видео объединить со звуком в контейнер 3gp? Если да, то какими программами?
Заранее спасибо!

-------
Всегда лучше наблюдать за процессом, чем делать что-то самому. © Homer Simpson


Отправлено: 02:08, 02-04-2007

 

Аватара для DJ Mogarych

fascinating rhythm


Moderator


Сообщения: 4971
Благодарности: 866

Профиль | Сайт | Отправить PM | Цитировать


Я взял отрывок этого фильма в 1920x1080 и закодировал со следующими параметрами:
Код: Выделить весь код
ffmpeg -i .\term1984.mkv -vf scale=320:-2 -b:a 56k -ac 1 -ar 44100 .\term1984.mp4
Попробуйте: https://dropmefiles.com.ua/SUGz63QDZ

MediaInfo

General
Complete name : D:\Видео\term1984.mp4
Format : MPEG-4
Format profile : Base Media
Codec ID : isom (isom/iso2/avc1/mp41)
File size : 2.31 MiB
Duration : 1 min 20 s
Overall bit rate : 240 kb/s
Writing application : Lavf58.35.101

Video
ID : 1
Format : AVC
Format/Info : Advanced Video Codec
Format profile : High@L1.3
Format settings : CABAC / 4 Ref Frames
Format settings, CABAC : Yes
Format settings, Reference fra : 4 frames
Codec ID : avc1
Codec ID/Info : Advanced Video Coding
Duration : 1 min 20 s
Bit rate : 174 kb/s
Width : 320 pixels
Height : 174 pixels
Display aspect ratio : 1.85:1
Frame rate mode : Constant
Frame rate : 30.000 FPS
Color space : YUV
Chroma subsampling : 4:2:0
Bit depth : 8 bits
Scan type : Progressive
Bits/(Pixel*Frame) : 0.104
Stream size : 1.68 MiB (73%)
Writing library : x264 core 158
Encoding settings : cabac=1 / ref=3 / deblock=1:0:0 / analyse=0x3:0x113 / me=hex / subme=7 / psy=1 / psy_rd=1.00:0.00 / mixed_ref=1 / me_range=16 / chroma_me=1 / trellis=1 / 8x8dct=1 / cqm=0 / deadzone=21,11 / fast_pskip=1 / chroma_qp_offset=-2 / threads=5 / lookahead_threads=1 / sliced_threads=0 / nr=0 / decimate=1 / interlaced=0 / bluray_compat=0 / constrained_intra=0 / bframes=3 / b_pyramid=2 / b_adapt=1 / b_bias=0 / direct=1 / weightb=1 / open_gop=0 / weightp=2 / keyint=250 / keyint_min=25 / scenecut=40 / intra_refresh=0 / rc_lookahead=40 / rc=crf / mbtree=1 / crf=23.0 / qcomp=0.60 / qpmin=0 / qpmax=69 / qpstep=4 / ip_ratio=1.40 / aq=1:1.00
Codec configuration box : avcC

Audio
ID : 2
Format : AAC LC
Format/Info : Advanced Audio Codec Low Complexity
Codec ID : mp4a-40-2
Duration : 1 min 20 s
Duration_LastFrame : -23 ms
Bit rate mode : Constant
Bit rate : 56.8 kb/s
Channel(s) : 1 channel
Channel layout : C
Sampling rate : 44.1 kHz
Frame rate : 43.066 FPS (1024 SPF)
Compression mode : Lossy
Stream size : 561 KiB (24%)
Language : English
Default : Yes
Alternate group : 1

-------
Скачать ffmpeg для Windows: https://ffmpeg.zeranoe.com/builds/

Это сообщение посчитали полезным следующие участники:

Отправлено: 12:07, 06-02-2020 | #31



Для отключения данного рекламного блока вам необходимо зарегистрироваться или войти с учетной записью социальной сети.

Если же вы забыли свой пароль на форуме, то воспользуйтесь данной ссылкой для восстановления пароля.


Аватара для Frost O.S

Ветеран


Сообщения: 594
Благодарности: 5

Профиль | Сайт | Отправить PM | Цитировать


DJ Mogarych,
Скинул Ваше видео себе на телефон, и оно идёт (воспроизводится) рывками .

-------
Cведения о конфигурации пк моим под аватаром...


Отправлено: 12:53, 06-02-2020 | #32


Аватара для DJ Mogarych

fascinating rhythm


Moderator


Сообщения: 4971
Благодарности: 866

Профиль | Сайт | Отправить PM | Цитировать


Следующий вариант: https://dropmefiles.com.ua/SfeD

Параметры кодирования:
Код: Выделить весь код
ffmpeg -i .\term1984.mkv -vf scale=320:-2 -crf 30 -b:a 56k -ac 1 -ar 44100 .\term1984-crf30.mp4

-------
Скачать ffmpeg для Windows: https://ffmpeg.zeranoe.com/builds/

Это сообщение посчитали полезным следующие участники:

Отправлено: 13:40, 06-02-2020 | #33


Аватара для Frost O.S

Ветеран


Сообщения: 594
Благодарности: 5

Профиль | Сайт | Отправить PM | Цитировать


DJ Mogarych,
Сейчас вообще в телефон выдаётся сообщение при открытии файла - "данный тип файла не поддерживается" . Придётся довольствоваться форматом *.3gp + кодек H.263 . На пальцах гадать придётся долго . Остановлюсь на устаревшем формате хоть он и в ущерб качеству . Благодарю за поддержку .

-------
Cведения о конфигурации пк моим под аватаром...


Отправлено: 15:17, 06-02-2020 | #34



Компьютерный форум OSzone.net » Цифровые технологии » Видео и аудио: обработка и кодирование » Кодирование в 3gp

Участник сейчас на форуме Участник сейчас на форуме Участник вне форума Участник вне форума Автор темы Автор темы Шапка темы Сообщение прикреплено

Похожие темы
Название темы Автор Информация о форуме Ответов Последнее сообщение
Мультимедиа - Freez 3GP Video Converter avenir00 Программное обеспечение Windows 5 20-05-2009 19:36
конвертер в 3gp Surround Видео и аудио: обработка и кодирование 2 10-11-2007 14:48
Посоветуйте прогу для перекодирования 3gp в avi Sky11ptor Видео и аудио: обработка и кодирование 12 03-08-2007 17:15
Не воспроизводится файл 3gp nordmann_83 Видео и аудио: обработка и кодирование 5 19-02-2007 13:22
Перекодировка с 3gp в другие видео форматы Keraberas Видео и аудио: обработка и кодирование 2 08-01-2007 16:48




 
Переход