Имя пользователя:
Пароль:  
Помощь | Регистрация | Забыли пароль?  | Правила  

Компьютерный форум OSzone.net » Клиентские ОС Microsoft » Microsoft Windows 7 » Медиа - Windows 7 и mp4

Ответить
Настройки темы
Медиа - Windows 7 и mp4

Пользователь


Сообщения: 113
Благодарности: 2


Конфигурация

Профиль | Отправить PM | Цитировать


Привет
Не открываются видео mp4...
Все обновления установлены
Все кодеки и 32 и 64 установлены
С++ библы установлены
Пробовал плееры VLC, Windows Player, Kmplayer, GOM...
Чистил реестр
Ничего не помогает...
всё дистанционно, увы
Даже на win 10 пробовал обновить - не работает...

Отправлено: 02:39, 23-10-2020

 

Ветеран


Сообщения: 1477
Благодарности: 221

Профиль | Отправить PM | Цитировать


Ну, VLC должен открывать, даже если в системе нет кодеков, так как у него они свои.
Поставьте программку MediaInfo и посмотрите там данные вашего mp4.

Отправлено: 08:40, 23-10-2020 | #2



Для отключения данного рекламного блока вам необходимо зарегистрироваться или войти с учетной записью социальной сети.

Если же вы забыли свой пароль на форуме, то воспользуйтесь данной ссылкой для восстановления пароля.


Пользователь


Сообщения: 113
Благодарности: 2

Профиль | Отправить PM | Цитировать


вот никак и на других компах всё открывается
переустановил поверх на windows 10 (оставил только личные файлы) и опять таже проблема...

Отправлено: 17:58, 23-10-2020 | #3


Пользователь


Сообщения: 88
Благодарности: 15

Профиль | Отправить PM | Цитировать


1. Скачайте и переустановите K-Lite Codec Pack (Full), может у вас кривой набор кодеков.
2. Если нет, то, возможно, проблема аппаратная, а именно проблема видеокарты или её глючных драйверов. На это указывает то, что на win10 mp4 должно нормально открываться на голой системе. Можно снести драйверы, проверить на другой видеокарте.

Отправлено: 19:02, 23-10-2020 | #4


Ветеран


Сообщения: 888
Благодарности: 68

Профиль | Отправить PM | Цитировать


Цитата nextnext:
На это указывает то, что на win10 mp4 должно нормально открываться на голой системе. Можно снести драйверы, проверить на другой видеокарте.
Здесь вин7.
Но мысль переставить к-лайт дельная

Отправлено: 22:20, 23-10-2020 | #5


Пользователь


Сообщения: 113
Благодарности: 2

Профиль | Отправить PM | Цитировать


спасибо
Перешёл на win 10, как уже писал и драйвера и кодеки начисто переустановил.
Проблема осталась....

Отправлено: 15:05, 24-10-2020 | #6


Ветеран


Сообщения: 1477
Благодарности: 221

Профиль | Отправить PM | Цитировать


А что за файлы mp4 - это фильмы, скачанные с интернета, или снятые на телефон?
Цитата tamalex:
Поставьте программку MediaInfo и посмотрите там данные вашего mp4. »
И выложите скрин оттуда с данными файла.

Отправлено: 16:08, 24-10-2020 | #7


Ветеран


Contributor


Сообщения: 26437
Благодарности: 7685

Профиль | Отправить PM | Цитировать


Цитата tamalex:
И выложите скрин оттуда с данными файла. »
Лучше текст, обрамлённый спойлером.

Отправлено: 17:28, 24-10-2020 | #8


Пользователь


Сообщения: 113
Благодарности: 2

Профиль | Отправить PM | Цитировать


Спасибо

Скрытый текст
General
Complete name : D:\! Загрузки\04.mp4
Format : MPEG-4
Format profile : Base Media / Version 2
Codec ID : mp42 (isom/mp42)
File size : 553 MiB
Duration : 3 h 6 min
Overall bit rate mode : Variable
Overall bit rate : 414 kb/s
Encoded date : UTC 2020-09-26 12:44:03
Tagged date : UTC 2020-09-26 12:44:03
Xtra : WM/MediaClassPrimaryID

Video
ID : 2
Format : AVC
Format/Info : Advanced Video Codec
Format profile : High@L5
Format settings : CABAC / 11 Ref Frames
Format settings, CABAC : Yes
Format settings, Reference frames : 11 frames
Muxing mode : Container profile=High@3.1
Codec ID : avc1
Codec ID/Info : Advanced Video Coding
Duration : 3 h 6 min
Bit rate : 361 kb/s
Width : 1 600 pixels
Height : 720 pixels
Display aspect ratio : 2.222
Frame rate mode : Constant
Frame rate : 25.000 FPS
Color space : YUV
Chroma subsampling : 4:2:0
Bit depth : 8 bits
Scan type : Progressive
Bits/(Pixel*Frame) : 0.013
Stream size : 483 MiB (87%)
Title : H.264/AVC video
Encoded date : UTC 2020-09-26 12:44:03
Tagged date : UTC 2020-09-26 12:44:03
Codec configuration box : avcC

Audio
ID : 1
Format : AAC LC
Format/Info : Advanced Audio Codec Low Complexity
Codec ID : mp4a-40-2
Duration : 3 h 6 min
Bit rate mode : Variable
Bit rate : 50.8 kb/s
Maximum bit rate : 126 kb/s
Channel(s) : 1 channel
Channel layout : C
Sampling rate : 32.0 kHz
Frame rate : 31.250 FPS (1024 SPF)
Compression mode : Lossy
Stream size : 67.9 MiB (12%)
Title : AAC audio
Encoded date : UTC 2020-09-26 12:44:03
Tagged date : UTC 2020-09-26 12:44:03
Menus : 3

Menu
ID : 3
Codec ID : text
Duration : 3 h 6 min
Title : Text
Encoded date : UTC 2020-09-26 12:44:03
Tagged date : UTC 2020-09-26 12:44:03
Menu For : 1


Отправлено: 17:23, 29-10-2020 | #9


Новый участник


Сообщения: 1
Благодарности: 0

Профиль | Отправить PM | Цитировать


может и mp4 "битый" или прога, которая воспроизводит файл

Последний раз редактировалось Irinkass, 31-10-2020 в 18:57. Причина: дублирование


Отправлено: 18:55, 31-10-2020 | #10



Компьютерный форум OSzone.net » Клиентские ОС Microsoft » Microsoft Windows 7 » Медиа - Windows 7 и mp4

Участник сейчас на форуме Участник сейчас на форуме Участник вне форума Участник вне форума Автор темы Автор темы Шапка темы Сообщение прикреплено

Похожие темы
Название темы Автор Информация о форуме Ответов Последнее сообщение
Разное - при просмотре видео MP4 нет звука, установлена ОС Windows 7? димбос Microsoft Windows 7 2 16-08-2012 23:21
AC3filter и mp4 derg_un Хочу все знать 0 18-06-2012 21:37
[решено] Киностудия Windows Live не видет видео в формате avi .mp4 звук есть micro8 Видео и аудио: обработка и кодирование 1 20-12-2011 17:42
нужна прошивка для mp4 плеера large aolle pmp mp4 tool 304E re5pect Поиск драйверов, прошивок и руководств 0 03-04-2008 16:23
avi to mp4 QrA Видео и аудио: обработка и кодирование 5 30-01-2006 22:50




 
Переход