Имя пользователя:
Пароль:  
Помощь | Регистрация | Забыли пароль?  | Правила  

Компьютерный форум OSzone.net » Цифровые технологии » Видео и аудио: обработка и кодирование » Как лучше записывать видео?

Ответить
Настройки темы
Как лучше записывать видео?

Аватара для sky26

Новый участник


Сообщения: 28
Благодарности: 0


Конфигурация

Профиль | Отправить PM | Цитировать


Короче, захватываю видео с видеокассеты с помощью pinnacle studio, но после захвата файлы получаются размером около 40 гб, я их конвертирую в avi они получаются весом около 4 гб, но качество похуже и разрешение тоже. Так вот вопрос, как и чем лучше всего конвертировать, что бы получить наивысшее качество и наименьший размер?

Отправлено: 15:43, 02-10-2011

 

Аватара для DJ Mogarych

fascinating rhythm


Moderator


Сообщения: 6080
Благодарности: 1301

Профиль | Отправить PM | Цитировать


Видеокассета — VHS или mini-dv?
С каким разрешением захватываете?
Наилучшее качество при наименьшем размере дают современные кодеки, типа x.264 (контейнер, например, mkv).
DivX и XviD с контейнером avi уходят в прошлое.

-------
Скачать ffmpeg: https://github.com/BtbN/FFmpeg-Build...ses/tag/latest


Отправлено: 13:24, 03-10-2011 | #2



Для отключения данного рекламного блока вам необходимо зарегистрироваться или войти с учетной записью социальной сети.

Если же вы забыли свой пароль на форуме, то воспользуйтесь данной ссылкой для восстановления пароля.


Аватара для sky26

Новый участник


Сообщения: 28
Благодарности: 0

Профиль | Отправить PM | Цитировать


DJ Mogarych, VHS обычная видеокассета, В pinnacle в настройках выставляю всё по максимуму, качество и разрешение (720x576) Щас попробую в mkv сконвертировать, позже отпишусь.

Отправлено: 17:02, 03-10-2011 | #3


Аватара для sky26

Новый участник


Сообщения: 28
Благодарности: 0

Профиль | Отправить PM | Цитировать


Короче, конвертирую с помощью FormatFactory, а на выходе получается изображение с полосками:

Код: Выделить весь код
General
Unique ID                        : 183239725988079073613495614499850919315 (0x89DAB001D8B43142A6B173F09E399D93)
Complete name                    : D:\Видео 1 [Высшее качество (больше)].mkv
Format                           : Matroska
File size                        : 5.71 GiB
Duration                         : 3h 13mn
Overall bit rate                 : 4 227 Kbps
Encoded date                     : UTC 2011-10-04 20:12:05
Writing application              : mkvmerge v2.4.0 ('Fumbling Towards Ecstasy') built on Oct 11 2008 20:13:15
Writing library                  : libebml v0.7.7 + libmatroska v0.8.1

Video
ID                               : 1
Format                           : AVC
Format/Info                      : Advanced Video Codec
Format profile                   : High@L4.0
Format settings, CABAC           : No
Format settings, ReFrames        : 1 frame
Codec ID                         : V_MPEG4/ISO/AVC
Duration                         : 3h 13mn
Nominal bit rate                 : 4 147 Kbps
Width                            : 720 pixels
Height                           : 576 pixels
Display aspect ratio             : 4:3
Original display aspect ratio    : 5:4
Frame rate                       : 25.000 fps
Standard                         : PAL
Color space                      : YUV
Chroma subsampling               : 4:2:0
Bit depth                        : 8 bits
Scan type                        : Progressive
Bits/(Pixel*Frame)               : 0.400
Writing library                  : x264 core 80 r1378+57 6f6b50a
Encoding settings                : cabac=0 / ref=1 / deblock=1:0:0 / analyse=0x3:0x113 / me=hex / subme=7 / psy=1 / psy_rd=1.0:0.0 / mixed_ref=0 / me_range=16 / chroma_me=1 / trellis=0 / 8x8dct=1 / cqm=0 / deadzone=21,11 / fast_pskip=1 / chroma_qp_offset=-2 / threads=3 / sliced_threads=0 / nr=0 / decimate=1 / mbaff=0 / constrained_intra=0 / bframes=0 / wpredp=2 / keyint=250 / keyint_min=25 / scenecut=40 / rc_lookahead=40 / rc=abr / mbtree=1 / bitrate=4147 / ratetol=1.0 / qcomp=0.60 / qpmin=10 / qpmax=51 / qpstep=4 / ip_ratio=1.40 / aq=1:1.00

Audio
ID                               : 2
Format                           : AAC
Format/Info                      : Advanced Audio Codec
Format profile                   : Main
Codec ID                         : A_AAC
Duration                         : 3h 13mn
Channel(s)                       : 2 channels
Channel positions                : Front: L R
Sampling rate                    : 44.1 KHz
Compression mode                 : Lossy
Подскажите, что я не так делаю?

Отправлено: 16:04, 06-10-2011 | #4


Аватара для Ugerm

Новый участник


Сообщения: 6
Благодарности: 3

Профиль | Отправить PM | Цитировать


Вам нужно использовать deinterlace. На видео чрезстрочная развертка. Например в программе VirtualDub, этот недостаток легко убирается с помощью фильтра deinterlace. Насчет других программ не в курсе.
Это сообщение посчитали полезным следующие участники:

Отправлено: 13:21, 07-10-2011 | #5


Аватара для sky26

Новый участник


Сообщения: 28
Благодарности: 0

Профиль | Отправить PM | Цитировать


Ugerm, спасибо, но появилась новая проблема, deinterlace в настройках format factory не включается, я наживаю включить, а ничего не происходит!

Попробую пока сконвертировать с помощью Xilisoft Video Converter, надеюсь получится

Отправлено: 19:20, 07-10-2011 | #6


Аватара для sky26

Новый участник


Сообщения: 28
Благодарности: 0

Профиль | Отправить PM | Цитировать


Так, от полос избавился, теперь ещё вопрос, как повысить "плавность" видео. Дело том что оригинал видео идёт плавно, а после конвертирования как бы дёргается, как будто кадров не хватает, совсем почти не заметно, но всё же не пойму почему так, кадры выставлял 30 fps, может что нить ещё добавить?
Код: Выделить весь код
General Unique ID : 168348648403719580577546155723716462494 (0x7EA6C532C2870C1E037BA147C20E879E) Complete name : D:\video1 .mkv Format : Matroska File size : 3.99 GiB Duration : 3h 13mn Overall bit rate : 2 954 Kbps Writing application : Lavf51.12.1 Writing library : Lavf51.12.1 Video ID : 1 Format : AVC Format/Info : Advanced Video Codec Format profile : Baseline@L1.3 Format settings, CABAC : No Format settings, ReFrames : 1 frame Format settings, GOP : M=1, N=12 Codec ID : V_MPEG4/ISO/AVC Duration : 3h 13mn Bit rate : 2 768 Kbps Width : 720 pixels Height : 576 pixels Display aspect ratio : 5:4 Frame rate : 30.000 fps Standard : PAL Color space : YUV Chroma subsampling : 4:2:0 Bit depth : 8 bits Scan type : Progressive Bits/(Pixel*Frame) : 0.222 Stream size : 3.74 GiB (94%) Language : English Audio ID : 2 Format : MPEG Audio Format version : Version 1 Format profile : Layer 3 Mode : Joint stereo Codec ID : A_MPEG/L3 Codec ID/Hint : MP3 Duration : 3h 13mn Bit rate mode : Constant Bit rate : 128 Kbps Channel(s) : 2 channels Sampling rate : 44.1 KHz Compression mode : Lossy Stream size : 177 MiB (4%) Language : English

Последний раз редактировалось sky26, 07-10-2011 в 22:57.


Отправлено: 22:52, 07-10-2011 | #7


Аватара для Rinek

Новый участник


Сообщения: 11
Благодарности: 2

Профиль | Отправить PM | Цитировать


Цитата sky26:
как повысить "плавность" видео. Дело том что оригинал видео идёт плавно, а после конвертирования как бы дёргается, как будто кадров не хватает »
Видео дергается от того, что вы неправильно выставили частоту кадров при кодировании с кассеты в цифровой формат! Если на кассете идет 25 или 29,950 кадров в секунду (точно не скажу), а вы эти кадры переводите в 30, то естественно техника толком не знает, как из 1го кадра сделать полтора или два и получается дергание. Поставьте 25 или 29 кадров в настройках кодирования.
Это сообщение посчитали полезным следующие участники:

Отправлено: 18:05, 10-10-2011 | #8


Аватара для DJ Mogarych

fascinating rhythm


Moderator


Сообщения: 6080
Благодарности: 1301

Профиль | Отправить PM | Цитировать


Ставьте 25 кадров.
Моя инструкция по оцифровке VHS.

-------
Скачать ffmpeg: https://github.com/BtbN/FFmpeg-Build...ses/tag/latest


Отправлено: 00:33, 13-10-2011 | #9


Аватара для sky26

Новый участник


Сообщения: 28
Благодарности: 0

Профиль | Отправить PM | Цитировать


Rinek, выставил 25 кадров, результат тот же, оригинал всё же идёт плавнее Но за ответ спасибо!
Вот инфа оригинала:
Код: Выделить весь код
General
Complete name                    : D:\Видео 1.avi
Format                           : AVI
Format/Info                      : Audio Video Interleave
Format_Commercial_IfAny          : DVCPRO
Format profile                   : OpenDML
File size                        : 41.2 GiB
Duration                         : 3h 13mn
Overall bit rate                 : 30.5 Mbps

Video
ID                               : 0
Format                           : DV
Format_Commercial_IfAny          : DVCPRO
Codec ID                         : dvsd
Codec ID/Hint                    : Sony
Duration                         : 3h 13mn
Bit rate mode                    : Constant
Bit rate                         : 24.4 Mbps
Width                            : 720 pixels
Height                           : 576 pixels
Display aspect ratio             : 4:3
Frame rate mode                  : Constant
Frame rate                       : 25.000 fps
Standard                         : PAL
Color space                      : YUV
Chroma subsampling               : 4:2:0
Bit depth                        : 8 bits
Scan type                        : Interlaced
Compression mode                 : Lossy
Bits/(Pixel*Frame)               : 2.357
Stream size                      : 38.9 GiB (94%)

Audio
ID                               : 1
Format                           : PCM
Format settings, Endianness      : Little
Format settings, Sign            : Signed
Codec ID                         : 1
Codec ID/Hint                    : Microsoft
Duration                         : 3h 13mn
Bit rate mode                    : Constant
Bit rate                         : 1 536 Kbps
Channel(s)                       : 2 channels
Sampling rate                    : 48.0 KHz
Bit depth                        : 16 bits
Stream size                      : 2.08 GiB (5%)
Interleave, duration             : 40 ms (1.00 video frame)
Interleave, preload duration     : 40 ms
А вот что у меня вышло:
Код: Выделить весь код
General
Unique ID                        : 168348648403719580577546155723716462494 (0x7EA6C532C2870C1E037BA147C20E879E)
Complete name                    : D:\Видео 1.mkv
Format                           : Matroska
File size                        : 4.00 GiB
Duration                         : 3h 13mn
Overall bit rate                 : 2 958 Kbps
Writing application              : Lavf51.12.1
Writing library                  : Lavf51.12.1

Video
ID                               : 1
Format                           : AVC
Format/Info                      : Advanced Video Codec
Format profile                   : Baseline@L1.3
Format settings, CABAC           : No
Format settings, ReFrames        : 1 frame
Format settings, GOP             : M=1, N=12
Codec ID                         : V_MPEG4/ISO/AVC
Duration                         : 3h 13mn
Bit rate                         : 2 707 Kbps
Width                            : 720 pixels
Height                           : 576 pixels
Display aspect ratio             : 5:4
Frame rate                       : 25.000 fps
Standard                         : PAL
Color space                      : YUV
Chroma subsampling               : 4:2:0
Bit depth                        : 8 bits
Scan type                        : Progressive
Bits/(Pixel*Frame)               : 0.261
Stream size                      : 3.66 GiB (92%)
Language                         : English

Audio
ID                               : 2
Format                           : MPEG Audio
Format version                   : Version 1
Format profile                   : Layer 3
Mode                             : Joint stereo
Codec ID                         : A_MPEG/L3
Codec ID/Hint                    : MP3
Duration                         : 3h 13mn
Bit rate mode                    : Constant
Bit rate                         : 192 Kbps
Channel(s)                       : 2 channels
Sampling rate                    : 44.1 KHz
Compression mode                 : Lossy
Stream size                      : 266 MiB (6%)
Language                         : English

В теории оно как бы и должно работать, а на деле нет
DJ Mogarych, попробую записать вашим способом, надеюсь получиться

Отправлено: 19:12, 13-10-2011 | #10



Компьютерный форум OSzone.net » Цифровые технологии » Видео и аудио: обработка и кодирование » Как лучше записывать видео?

Участник сейчас на форуме Участник сейчас на форуме Участник вне форума Участник вне форума Автор темы Автор темы Шапка темы Сообщение прикреплено

Похожие темы
Название темы Автор Информация о форуме Ответов Последнее сообщение
В каком формате лучше записывать видео? micro8 Видео и аудио: обработка и кодирование 3 29-09-2011 11:49
Разное - [решено] как записывать диски nikata Хочу все знать 6 21-12-2010 23:28
Может ли AverTV Studeo 203 записывать видео? Myasnikov Хочу все знать 13 19-04-2008 12:03
File System - в какой системе лучше записывать диски? AACC Хочу все знать 3 15-10-2007 11:14
Чем и как записывать на Видео Кассету exceter Мобильные ОС, смартфоны и планшеты 2 11-12-2003 17:19




 
Переход