Имя пользователя:
Пароль:  
Помощь | Регистрация | Забыли пароль?  | Правила  

Компьютерный форум OSzone.net » Цифровые технологии » Видео и аудио: обработка и кодирование » [решено] Сохранять готовое видео нужно с такими же настройками как оригинальное?

Ответить
Настройки темы
[решено] Сохранять готовое видео нужно с такими же настройками как оригинальное?

Аватара для micro8

Ветеран


Сообщения: 1337
Благодарности: 23


Конфигурация

Профиль | Отправить PM | Цитировать


Сохранять готовое видео нужно с такими же настройками как оригинальное? Или если позволяет кодек и программа Vegas Pro 10.0 можно увеличить битрейт, ширину и высоту видео? Качество улучшится готового видео?
Имеется видео с видеорегистратора
читать дальше »
ормат : AVI
Формат/Информация : Audio Video Interleave
Размер файла : 154 Мбайт
Продолжительность : 3 м. 36 с.
Общий поток : 5980 Кбит/сек
Видео
Идентификатор : 0
Формат : JPEG
Идентификатор кодека : MJPG
Продолжительность : 3 м. 36 с.
Битрейт : 10,6 Мбит/сек
Ширина : 640 пикселей
Высота : 480 пикселей
Соотношение сторон : 4:3
Частота кадров : 27,920 кадров/сек
Цветовое пространство : YUV
Субдискретизация насыщенности : 4:2:2
Битовая глубина : 8 бит
Метод сжатия : С потерями
Бит/(Пиксели*Кадры) : 1.238
Размер потока : 274 Мбайт
Аудио
Идентификатор : 1
Формат : PCM
Параметр Endianness формата : Little
Параметр Sign формата : Unsigned
Идентификатор кодека : 1
Продолжительность : 3 м. 36 с.
Вид битрейта : Постоянный
Битрейт : 64,0 Кбит/сек
Каналы : 1 канал
Частота : 8000 Гц
Битовая глубина : 8 бит
Размер потока : 1,65 Мбайт (1%)
Выравнивание : Соединение по промежуткам
Продолжительность промежутка : 767 мс. (21,41 видеокадров)

Отправлено: 11:18, 20-05-2013

 

Забанен


Сообщения: 5828
Благодарности: 1242

Профиль | Цитировать


Цитата micro8:
Качество улучшится готового видео? »
Да откуда же оно улучшится? Качество - это определенное количество информации. Если информация потеряна, откуда её взять тупой программе? Разве что придумать с потолка. Почему при увеличении любой фотографии, мы вместо мелких деталей наблюдаем лишь огромные квадратики? Вот и здесь то же самое.

Цитата micro8:
Сохранять готовое видео нужно с такими же настройками как оригинальное? »
Не обязательно, всё зависит от целей. Можно оставить как есть, можно понизить для уменьшения размера файла.

Отправлено: 11:22, 20-05-2013 | #2



Для отключения данного рекламного блока вам необходимо зарегистрироваться или войти с учетной записью социальной сети.

Если же вы забыли свой пароль на форуме, то воспользуйтесь данной ссылкой для восстановления пароля.


Аватара для micro8

Ветеран


Сообщения: 1337
Благодарности: 23

Профиль | Отправить PM | Цитировать


Leha Ares, в моем примере Ширина : 640 пикселей Высота : 480 пикселей значит и сохранять в таком же формате должен?
Вывод, я сморю на исходное видео и готовое видео сохраняю в таких же пропорциях.

Отправлено: 11:26, 20-05-2013 | #3


Ветеран


Сообщения: 1525
Благодарности: 232

Профиль | Отправить PM | Цитировать


Размер кадра изменять не надо, а вот кодек - можно.
Это сообщение посчитали полезным следующие участники:

Отправлено: 19:46, 20-05-2013 | #4



Компьютерный форум OSzone.net » Цифровые технологии » Видео и аудио: обработка и кодирование » [решено] Сохранять готовое видео нужно с такими же настройками как оригинальное?

Участник сейчас на форуме Участник сейчас на форуме Участник вне форума Участник вне форума Автор темы Автор темы Шапка темы Сообщение прикреплено

Похожие темы
Название темы Автор Информация о форуме Ответов Последнее сообщение
[решено] Как правильно в биосе p8h67-m сохранять профили ? warning1009 Материнские платы и память 10 19-05-2013 11:34
Нужен видеоредактор бесплатный с такими функциями.... micro8 Видео и аудио: обработка и кодирование 1 12-10-2012 23:31
Установка - загружается как бы по кадрам с большими задержками, видео так же Дашка Microsoft Windows 2000/XP 4 10-07-2011 14:28
Какой программой сохранять поток AAC 128kbits(слушаю радио), в том же качестве?? alkovika Видео и аудио: обработка и кодирование 3 21-03-2009 20:20
Разное - [решено] как сохранять загрузки на другой диск Djona Хочу все знать 18 20-01-2009 08:30




 
Переход