Имя пользователя:
Пароль:  
Помощь | Регистрация | Забыли пароль?  | Правила  

Компьютерный форум OSzone.net » Сфера Microsoft » Программное обеспечение Windows » Мультимедиа - VirtualDub

Ответить
Настройки темы
Мультимедиа - VirtualDub

ФерзЪ


Сообщения: 769
Благодарности: 11

Профиль | Сайт | Отправить PM | Цитировать


Изменения
Автор: Drongo
Дата: 09-11-2009
Описание: Поправил шапку темы.
VirtualDub




VirtualDub - программа для обработки и захвата видео. Одна из лучших программ в своем роде.

Основные функции:
- Встроенные MPEG-1 и Motion-JPEG кодеки
- Удаление и замена аудио треков без редактирования видео
- Удаление частей видео файла
- Добавление кусков в видео файлу.
- Изменение параметров сжатия
- и многое другое...


Загрузка:Полезные ресурсы:Связанные темы:

Исходный вопрос

Такая фишка:
записал фильм, сохранил. В течении фильма 2 рекламы.
Выделил, вырезал, все ок, теперь хочу сохранить, но получается что весь фильм прокручивает что бы сохранить, нельзя как нить быстрей?

Отправлено: 01:42, 22-04-2004

 

Ветеран


Сообщения: 1386
Благодарности: 210

Профиль | Отправить PM | Цитировать


Разные характеристики видео - поэтому не соединяет.
Это сообщение посчитали полезным следующие участники:

Отправлено: 15:42, 26-04-2014 | #31



Для отключения данного рекламного блока вам необходимо зарегистрироваться или войти с учетной записью социальной сети.

Если же вы забыли свой пароль на форуме, то воспользуйтесь данной ссылкой для восстановления пароля.


Аватара для vanoman

Ветеран


Сообщения: 549
Благодарности: 0

Профиль | Отправить PM | Цитировать


tamalex,
перечислите какие именно разные. И как их сделать одинаковоми

Отправлено: 11:38, 27-04-2014 | #32


Ветеран


Сообщения: 1386
Благодарности: 210

Профиль | Отправить PM | Цитировать


Цитата vanoman:
какие именно разные »
1 видео
Общий поток : 482 Кбит/сек
Битрейт : 123 Кбит/сек
Бит/(Пиксели*Кадры) : 0.006
Размер потока : 9,88 Мбайт (26%)

2 видео
Общий поток : 496 Кбит/сек
Битрейт : 137 Кбит/сек
Бит/(Пиксели*Кадры) : 0.007
Размер потока : 52,2 Мбайт (28%)

Цитата vanoman:
как их сделать одинаковоми »
Сохранить оба ролика с одинаковыми параметрами.
Это сообщение посчитали полезным следующие участники:

Отправлено: 14:31, 27-04-2014 | #33


Аватара для vanoman

Ветеран


Сообщения: 549
Благодарности: 0

Профиль | Отправить PM | Цитировать


а как мне сохранить второй ролик с такими же параметрами как первый в виртуал дабе?

Отправлено: 17:54, 27-04-2014 | #34


Ветеран


Сообщения: 1386
Благодарности: 210

Профиль | Отправить PM | Цитировать


Проще сохранить оба ролика.

Отправлено: 18:45, 27-04-2014 | #35


Аватара для vanoman

Ветеран


Сообщения: 549
Благодарности: 0

Профиль | Отправить PM | Цитировать


tamalex, а как их добавить , если они не добавляются друг к другу?

Отправлено: 21:46, 27-04-2014 | #36


Аватара для HappyPlayer1997

Старожил


Сообщения: 318
Благодарности: 1

Профиль | Отправить PM | Цитировать


При сжатии видео в статусе сжатия, video data подскакивает на 12000 kb/s и толком не сжимает. Пользуюсь xvid mped 4 kodek!!!!!!!!!!!!!

Отправлено: 22:09, 26-11-2014 | #37



Компьютерный форум OSzone.net » Сфера Microsoft » Программное обеспечение Windows » Мультимедиа - VirtualDub

Участник сейчас на форуме Участник сейчас на форуме Участник вне форума Участник вне форума Автор темы Автор темы Шапка темы Сообщение прикреплено

Похожие темы
Название темы Автор Информация о форуме Ответов Последнее сообщение
VirtualDub lorbon Видео и аудио: обработка и кодирование 346 11-11-2019 19:39
VirtualDub 1.9.8 OSZone Software Новости программного обеспечения 0 25-12-2009 20:30
VirtualDub Portable 1.9.7 OSZone Software Новости программного обеспечения 0 28-10-2009 22:30
[решено] VirtualDub lirer Хочу все знать 1 14-08-2006 22:29
VirtualDub slavamlad Хочу все знать 5 17-08-2004 00:58




 
Переход